#TITLE:Lovely Lovely Lovely;
#SUBTITLE:- zebdal -;
#ARTIST:Thanatos;
#TITLETRANSLIT:;
#SUBTITLETRANSLIT:;
#ARTISTTRANSLIT:;
#CREDIT:;
#BANNER:L3-bn.png;
#BACKGROUND:L3-bg.png;
#LYRICSPATH:;
#CDTITLE:cdtitle.png;
#MUSIC:lovely lovely lovely.mp3;
#OFFSET:-0.479;
#SAMPLESTART:31.729;
#SAMPLELENGTH:12.000;
#SELECTABLE:YES;
#BPMS:0.000=192.000;
#STOPS:;
#BGCHANGES:;
// cache tags:
#FIRSTBEAT:0.000;
#LASTBEAT:296.500;
#SONGFILENAME:Songs/Music V.I.P ^_^/Lovely Lovely Lovely/lovely lovely lovely.sm;
#HASMUSIC:1;
#HASBANNER:1;
#MUSICLENGTH:95.720;
// end cache tags

//---------------dance-single - ----------------
#NOTES:
     dance-single:
     :
     Challenge:
     17:
     1.000,1.000,1.000,0.021,1.000,1157.000,396.000,2.000,0.000,34.000:
1001
0000
0011
1000
0100
0010
1100
0001
0010
1000
0110
0001
0100
0010
1100
0001
,
0100
1000
0011
0100
0010
0001
0110
1000
0100
0010
1100
0001
0010
0100
0011
1000
,
0100
0001
1010
0100
0001
0010
1100
0001
0010
1000
0110
0001
1000
0100
0011
0100
,
0010
0001
0110
1000
0100
1000
0101
0010
0001
0010
0101
1000
0100
0010
1001
0000
,
1001
0000
1001
0100
0010
0001
1100
0010
0001
1000
0011
0100
1000
0001
0110
1000
,
0100
0010
1001
0010
0100
0001
1010
0001
0100
0010
0101
1000
0010
0100
0011
1000
,
0001
0010
0101
1000
0010
0100
1001
0010
0100
1000
0011
0100
0001
0010
0101
1000
,
0100
0010
1100
0000
0010
0000
1001
0000
0100
0000
0011
0000
1000
0000
0110
0000
,
1000
0000
0110
1000
0100
0011
0100
0010
1100
0001
1000
0110
1000
0100
1001
0000
,
0110
0000
0011
1000
0100
1010
0001
0010
0101
1000
0100
0011
0100
0001
1010
0000
,
1001
0000
1010
0100
0010
0101
1000
0001
0110
1000
0100
1001
0010
1000
0110
0000
,
1001
0000
0011
0100
0001
1010
0100
1000
0011
1000
0001
0110
0001
1000
0110
0000
,
0101
0000
0011
0100
1000
0101
0010
0100
1001
0010
0100
0011
1000
0100
0011
0000
,
0110
0000
1010
0001
0100
0011
1000
0100
1010
0001
0100
0011
0100
1000
0101
0000
,
1100
0000
1010
0100
1000
0011
0100
0010
1001
0100
0010
0101
1000
0010
1100
0001
,
1010
0100
1001
0000
0000
1001
0000
0000
1001
0000
0000
1001
0000
0000
1001
0000
,
1001
0000
1001
0100
0010
0100
1001
0010
0100
1000
0011
0100
0001
1000
0101
0010
,
0001
0100
0011
1000
0100
0010
0101
0010
0100
1000
0011
0100
0001
1000
0011
0100
,
0001
1000
0101
0010
0001
0100
0011
1000
0100
1000
0011
0100
0001
0010
1100
0010
,
0100
1000
0011
0100
0010
0100
0011
1000
0001
0010
0101
1000
0010
0100
1001
0000
,
0101
0000
0011
0100
0001
0100
0011
1000
0100
0010
1001
0100
0010
1000
0011
0100
,
0001
1000
0011
0100
0001
0100
1001
0010
0001
0010
0101
1000
0010
0100
0011
1000
,
0001
0100
1001
0000
1100
0000
0110
0000
0011
0000
0000
0000
1001
0000
1010
0000
,
1100
0011
1100
0110
1001
0000
1001
0110
,
1010
0000
0110
1000
0011
0100
0011
1000
0111
1000
0010
0100
0011
1000
0101
0010
,
1001
0010
0101
1000
0110
1000
0011
1000
0111
1000
0001
0100
1010
0100
1001
0010
,
0101
1000
0011
0100
1001
0010
0101
1000
0111
1000
0010
1000
0101
0010
1100
0001
,
0110
1000
0011
0100
1010
0100
0011
0100
1011
0100
0010
0100
1001
0100
0011
1000
,
0101
0010
1100
0001
1010
0100
0011
1000
0111
1000
0010
1000
0011
0100
1010
0100
,
1001
0010
0101
1000
0011
1000
0011
0100
1011
0100
1000
0010
0101
0010
1100
0001
,
1010
0100
0011
1000
0011
0100
1001
0010
1101
0010
0001
0010
0101
1000
0011
1000
,
0101
1000
0011
0100
0011
1000
0101
1000
0111
1000
0001
0100
0011
1000
0101
1000
,
0011
0100
1010
0100
1001
0010
0101
1000
0111
1000
0100
0010
0101
1000
0011
0100
,
1001
0010
1001
0100
0011
1000
0101
1000
0111
1000
0001
0010
0101
1000
0011
0100
,
0011
1000
0101
0010
0101
1000
0011
0100
1011
0100
0010
1000
0101
1000
0011
0100
,
0011
1000
0101
0010
1001
0010
1100
0001
1110
0001
0100
0010
0101
1000
0011
0100
,
1001
0100
0011
1000
0101
0010
0101
1000
0111
1000
0010
0001
0110
1000
0101
0010
,
0101
0010
1100
0001
0110
1000
0011
0100
1011
0100
0001
0010
1001
0100
0011
1000
,
0011
0100
0011
1000
0101
0010
1001
0010
1101
0010
0001
0010
0101
1000
0011
0100
,
1001
0010
1001
0100
0011
0100
1001
0010
1101
0010
1000
0100
0011
1000
0110
0001
,
1100
0000
0010
0000
1001
0000
0000
0000
1000
0000
0101
0000
0000
0000
0001
0000
0110
0000
0000
0000
1000
0100
0010
0001
1000
0100
0010
0001
1000
0100
0010
0001
,
1000
0100
0010
0001
1100
0000
0000
0000
1000
0000
0011
0000
0000
0000
0010
0000
1100
0000
0000
0000
0001
0010
0100
1000
0001
0010
0100
1000
0001
0010
0100
1000
,
0001
0010
0100
1000
0011
0000
0000
0000
0010
0000
1100
0000
0000
0000
1000
0000
0110
0000
0000
0000
0100
1000
0010
0001
0100
1000
0010
0001
0100
1000
0010
0001
,
0100
1000
0010
0001
1100
0000
0000
0000
0010
0000
0101
0000
0000
0000
0010
0000
1001
0000
0000
0000
0010
0100
0001
1000
0010
0100
0001
1000
0010
0100
0001
1000
,
0010
0100
0001
1000
0110
0000
0000
0000
1000
0000
0011
0000
0000
0000
0001
0000
1010
0000
0000
0000
1000
0100
0001
0010
1000
0100
0001
0010
1000
0100
0001
0010
,
1000
0100
0001
0010
1100
0000
0000
0000
0100
0000
0011
0000
0000
0000
1000
0000
0101
0000
0000
0000
0001
0010
0100
1000
0001
0010
0100
1000
0001
0010
0100
1000
,
0001
0010
0100
1000
0011
0000
0000
0000
1000
0000
0110
0000
0000
0000
0001
0000
1010
0000
0000
0000
0010
1000
0100
0001
0010
1000
0100
0001
0010
1000
0100
0001
,
0010
1000
0100
0001
1010
0000
0000
0000
0010
0000
1100
0000
0000
0000
1000
0000
0011
0000
0000
0000
1000
0100
0010
0001
1000
0100
0010
0001
1000
0100
0010
0001
,
1000
0100
0010
0001
1100
0000
0000
0000
1000
0000
0110
0000
0000
0000
0010
0000
1001
0000
0000
0000
0100
0001
0010
1000
0100
0001
0010
1000
0100
0001
0010
1000
,
0100
0001
0010
1000
0101
0000
0000
0000
0010
0000
1100
0000
0000
0000
0001
0000
1010
0000
0000
0000
0100
1000
0010
0001
0100
1000
0010
0001
0100
1000
0010
0001
,
0100
1000
0010
0001
1100
0000
0000
0000
0100
0000
1010
0000
0000
0000
0010
0000
1100
0000
0000
0000
0100
0001
0010
1000
0100
0001
0010
1000
0100
0001
0010
1000
,
0100
0001
0010
1000
0101
0000
0000
0000
0001
0000
1010
0000
0000
0000
0100
0000
0011
0000
0000
0000
0010
1000
0001
0100
0010
1000
0001
0100
0010
1000
0001
0100
,
0010
1000
0001
0100
1010
0000
0000
0000
0100
0000
1001
0000
0000
0000
0010
0000
1100
0000
0000
0000
1000
0100
0001
0010
1000
0100
0001
0010
1000
0100
0001
0010
,
1000
0100
0001
0010
1100
0000
0000
0000
1000
0000
0101
0000
0000
0000
0001
0000
1100
0000
0000
0000
0001
0010
0100
1000
0001
0010
0100
1000
0001
0010
0100
1000
,
0001
0010
0100
1000
0011
0000
0000
0000
1100
0000
0000
0000
0110
0000
0000
0000
0011
0000
0000
0000
0000
0000
0000
0000
1001
0000
0000
0000
1010
0000
0000
0000
,
1100
0011
1100
0110
1001
0000
1001
0110
,
1010
0000
0110
1000
0011
0100
0011
1000
0111
1000
0010
0100
0011
1000
0101
0010
,
1100
0000
0001
0000
0010
0000
0100
0000
1000
0000
0001
0000
0010
0000
0100
0000
1000
0000
0001
0000
0010
0000
0100
0000
1000
0001
0010
0100
1000
0001
0010
0100
,
1000
0000
0011
0100
1010
0001
1010
0100
1011
0100
0010
1000
0011
0100
1010
0001
,
0110
0001
1100
0010
1100
0001
1010
0100
1011
0100
0010
0001
1100
0010
0101
0010
,
1100
0001
1010
0100
1010
0001
1100
0010
1101
0010
1000
0100
1001
0010
1100
0001
,
1010
0100
1001
0100
1010
0001
0110
0001
1110
0001
1000
0100
1001
0010
1100
0001
,
1010
0001
1100
0010
1001
0100
0011
1000
0111
1000
0010
0100
0011
1000
0101
0010
,
1001
0100
0011
1000
0101
0010
1100
0001
1110
0001
0010
0100
0011
1000
0011
0100
,
1001
0010
1100
0010
1001
0100
0011
1000
0111
1000
0010
0100
1001
0010
0101
0010
,
0101
1000
0011
0100
1010
0100
0011
1000
0111
1000
0100
0001
1010
0100
1001
0010
,
0101
1000
0011
0100
1001
0100
1001
0010
1101
0010
0001
0100
0011
1000
0011
0100
,
1001
0100
0011
0100
1001
0100
1010
0001
1110
0001
0100
1000
0011
0100
0011
1000
,
0110
0001
1010
0100
0011
0100
0011
1000
0111
1000
0010
0100
0011
0100
1001
0010
,
0101
1000
0011
0100
1001
0010
1001
0100
1011
0100
0001
0010
1100
0010
0101
1000
,
0101
0010
1001
0100
0011
1000
0011
0100
1011
0100
0010
1000
0101
0010
1100
0001
,
0110
1000
0101
0010
1101
0010
1100
0001
1110
0001
0110
1000
0111
1000
0011
0100
,
1011
0100
2002
0000
0000
0000
0000
0000
0000
0000
0000
0000
0000
0000
0000
0000
,
0000
0000
0000
0000
,
0000
3003
0000
0000
0000
0000
0000
0000
;
